Адрес РуТрекера для пользователей РФ - MainTracker.org

Расскажи друзьям:  

Создание скриншотов, получение техданных

Страницы:  1

Тема закрыта
Автор
Сообщение

AlexSchl

VIP (Заслуженный)

Стаж: 9 лет 1 месяц

Сообщений: 3041

AlexSchl · 08-Апр-12 13:06 (5 лет 10 месяцев назад)

[Цитировать] 

Создание скриншотов в формате png
Media Player Classic
Небольшой, но мощный проигрыватель мультимедийных файлов с интерфейсом в стиле Windows Media Player 6.x. Поддерживает все распространенные видео форматы. Предоставляет быстрый доступ к настройкам задействованных декодеров и позволяет изменять их в реальном времени, что может оказаться полезным при настройки качества обработки изображения (postprocessing, deinterlacing). Корректно работает со всеми функциями OGM и MKV, поддерживает просмотр субтитров, управляется горячими клавишами, захватывает скриншоты и видео, работает с плейлистами, открывает неполные AVI-файлы. При наличии соответствующих фильтров умеет воспроизводить DVD, QuickTime (QT, MOV) и RealMedia. Распространяется с открытым исходным кодом и не требует установки.
Вы можете скачать проигрыватель для Windows Vista, XP, 2000 или Windows 98, ME.
Создание скриншотов
1. Запустите видео из которого вы хотите сделать скриншоты.
2. Поставьте воспроизведение на паузу на понравившемся кадре.
3. File -> Save Image -> [выбираете расширение *.bmp] -> сохраняете файл.
4. Для уменьшения размера скриншота нужно преобразовать bmp в png.
  1. Преобразование программой Paint.
    1. Откройте скриншот через Paint.
    2. File -> Save As -> [выбираете расширение *.png] -> сохраняете файл.
  2. Преобразование программами Photoshop или Irfanview.
    Осуществляется аналогично случаю с Paint, но позволяет получить скриншоты меньшего размера за счёт возможности изменения коэффициента сжатия.

Media Player Classic Home Cinema
Скачать последнюю версию проигрывателя можно здесь.
Создание скриншотов
1. Запустите видео из которого вы хотите сделать скриншоты.
2. Поставьте воспроизведение на паузу на понравившемся кадре.
3. File -> Save Image -> [выбираете расширение *.png] -> сохраняете файл.
AvsP
Скачать последнюю версию можно здесь.
Также необходимо установить AviSynth и MatroskaSplitter.
Создание скриншотов
1. Откройте видео из которого вы хотите сделать скриншоты.
2. Выберите понравившийся кадр.
3. Video -> Save Image as... -> [выбираете расширение *.png] -> сохраняете файл.
[Профиль]  [ЛС] 
 

AlexSchl

VIP (Заслуженный)

Стаж: 9 лет 1 месяц

Сообщений: 3041

AlexSchl · 08-Апр-12 13:07 (спустя 57 сек.)

[Цитировать] 

BDInfo
Программа предназначена для получения подробной информации о Blu-ray дисках.
Сайт разработчика, где можно скачать последнюю версию bdinfo (на данный момент 0.5.3) и ознакомиться с подробным описанием на английском языке.
Сразу стоит отметить случаи, когда возможна некорректная работа программы:
  1. Информация о количестве bit у TrueHD аудио дорожек может быть неверной.
  2. Диск защищённый от копирования.
  3. Если отсутствуют, повреждены или недокачаны один или несколько файлов.

Пример работы программы с Blu-ray Iron Maiden - Flight 666
Сначала нужно указать папку с диском (Browse).
skrin
На данном диске есть концерт и документальный фильм. В данном случае это playlist 00001.MPLS и 00002.MPLS. 00003.MPLS - обычное для DVD и Blu-ray предупреждение о запрете копирования и т.п.
Для получения среднего значения битрейта для видео и аудио дорожек - Scan Bitrates.
После сканирования:
skrin

Получить отчёт - Viev Report.
skrin

Disc Title: Iron Maiden - Flight 666
Disc Size: 44 129 305 488 bytes
Protection: AACS
BD-Java: No
BDInfo: 0.5.2
Notes:
BDINFO HOME AND REPORTS SUBMISSION:
Cinema Squid
http://www.cinemasquid.com/Tools.aspx
INCLUDES FORUMS REPORT FOR:
Unofficial Blu-ray Audio and Video Specifications Thread
http://www.avsforum.com/avs-vb/showthread.php?t=760714
http://forum.blu-ray.com/showthread.php?t=3338
********************
PLAYLIST: 00000.MPLS
********************
<--- BEGIN FORUMS PASTE --->
Код:
Total   Video
Title                                                           Codec   Length  Movie Size      Disc Size       Bitrate Bitrate Main Audio Track                          Secondary Audio Track
-----                                                           ------  ------- --------------  --------------  ------- ------- ------------------                        ---------------------
00000.MPLS                                                      AVC     1:52:19 24 955 908 096  44 129 305 488  29,62   20,00   LPCM 5.1 4608Kbps (48kHz/16-bit)          DTS-HD Master 5.1 2444Kbps (48kHz/16-bit)
Код:
DISC INFO:
Disc Title:     Iron Maiden - Flight 666
Disc Size:      44 129 305 488 bytes
Protection:     AACS
BD-Java:        No
BDInfo:         0.5.2
PLAYLIST REPORT:
Name:                   00000.MPLS
Size:                   24 955 908 096 bytes
Length:                 1:52:19 (h:m:s)
Total Bitrate:          29,62 Mbps
Description:
VIDEO:
Codec                   Bitrate             Description
-----                   -------             -----------
MPEG-4 AVC Video        19999 kbps          1080p / 23,976 fps / 16:9 / High Profile 4.1
AUDIO:
Codec                           Language        Bitrate         Description
-----                           --------        -------         -----------
LPCM Audio                      English         4608 kbps       5.1 / 48 kHz / 4608 kbps / 16-bit
DTS-HD Master Audio             English         2444 kbps       5.1 / 48 kHz / 2444 kbps / 16-bit (DTS Core: 5.1 / 48 kHz / 1509 kbps / 16-bit)
Dolby Digital Audio             English         384 kbps        2.0 / 48 kHz / 384 kbps
SUBTITLES:
Codec                           Language        Bitrate         Description
-----                           --------        -------         -----------
Presentation Graphics           English         40,434 kbps
Presentation Graphics           English         40,422 kbps
Presentation Graphics           Dutch           35,221 kbps
Presentation Graphics           French          41,916 kbps
Presentation Graphics           German          43,613 kbps
Presentation Graphics           Hindi           26,944 kbps
Presentation Graphics           Italian         44,101 kbps
Presentation Graphics           Japanese        30,749 kbps
Presentation Graphics           Portuguese      43,139 kbps
Presentation Graphics           Portuguese      39,770 kbps
Presentation Graphics           Spanish         39,162 kbps
Presentation Graphics           Spanish         39,400 kbps
Presentation Graphics           Swedish         39,650 kbps
FILES:
Name            Time In         Length          Size            Total Bitrate
----            -------         ------          ----            -------------
00000.M2TS      0:00:00.000     1:52:19.733     24 955 908 096  29 622
CHAPTERS:
Number          Time In         Length          Avg Video Rate  Max 1-Sec Rate  Max 1-Sec Time  Max 5-Sec Rate  Max 5-Sec Time  Max 10Sec Rate  Max 10Sec Time  Avg Frame Size  Max Frame Size  Max Frame Time
------          -------         ------          --------------  --------------  --------------  --------------  --------------  --------------  --------------  --------------  --------------  --------------
1               0:00:00.000     0:09:26.983     18 466 kbps     39 821 kbps     00:02:28.022    30 309 kbps     00:02:24.853    26 859 kbps     00:02:19.889    96 265 bytes    520 680 bytes   00:01:19.120
2               0:09:26.983     0:09:58.806     21 178 kbps     36 915 kbps     00:16:01.251    33 637 kbps     00:11:48.040    28 905 kbps     00:17:14.450    110 413 bytes   375 859 bytes   00:11:42.368
3               0:19:25.789     0:07:36.038     21 260 kbps     39 690 kbps     00:23:02.047    30 249 kbps     00:23:11.765    27 066 kbps     00:23:06.760    110 838 bytes   366 770 bytes   00:23:54.724
4               0:27:01.828     0:06:18.669     20 134 kbps     37 947 kbps     00:32:58.434    31 696 kbps     00:27:31.650    29 704 kbps     00:27:25.477    104 972 bytes   397 191 bytes   00:32:07.759
5               0:33:20.498     0:08:19.081     20 847 kbps     41 459 kbps     00:38:20.923    34 806 kbps     00:38:25.344    32 337 kbps     00:38:20.965    108 686 bytes   370 047 bytes   00:39:15.561
6               0:41:39.580     0:07:42.879     19 215 kbps     35 980 kbps     00:45:28.183    29 018 kbps     00:48:32.034    26 121 kbps     00:45:28.100    100 177 bytes   396 912 bytes   00:46:27.743
7               0:49:22.459     0:09:38.411     19 459 kbps     42 797 kbps     00:53:59.778    38 816 kbps     00:53:57.859    35 327 kbps     00:53:56.983    101 452 bytes   424 458 bytes   00:57:21.688
8               0:59:00.870     0:08:53.741     21 679 kbps     42 468 kbps     01:04:12.682    40 352 kbps     01:04:10.429    34 591 kbps     00:59:27.438    113 027 bytes   365 165 bytes   01:03:30.348
9               1:07:54.612     0:07:31.117     21 771 kbps     39 233 kbps     01:13:05.506    34 568 kbps     01:13:05.422    29 793 kbps     01:13:02.461    113 502 bytes   392 456 bytes   01:11:18.691
10              1:15:25.729     0:11:45.329     20 176 kbps     38 529 kbps     01:22:08.214    32 238 kbps     01:17:07.748    30 586 kbps     01:16:59.865    105 191 bytes   407 647 bytes   01:21:23.003
11              1:27:11.059     0:09:26.732     20 933 kbps     42 708 kbps     01:30:08.778    36 410 kbps     01:29:09.677    34 950 kbps     01:29:10.011    109 134 bytes   391 167 bytes   01:36:03.966
12              1:36:37.792     0:15:41.940     17 281 kbps     37 938 kbps     01:42:46.410    32 379 kbps     01:37:41.856    30 190 kbps     01:37:37.309    90 102 bytes    389 042 bytes   01:41:03.474
STREAM DIAGNOSTICS:
File            PID             Type            Codec           Language                Seconds                 Bitrate                 Bytes           Packets
----            ---             ----            -----           --------                --------------          --------------          -------------   -----
00000.M2TS      4113 (0x1011)   0x1B            AVC                                     6739,650                19 999                  16 848 693 567  91 663 618
00000.M2TS      4352 (0x1100)   0x81            AC3             eng (English)           6739,650                384                     323 424 768     1 895 067
00000.M2TS      4353 (0x1101)   0x86            DTS-HD MA       eng (English)           6739,650                2 444                   2 059 088 480   12 239 575
00000.M2TS      4354 (0x1102)   0x80            LPCM            eng (English)           6739,650                4 613                   3 886 478 400   21 561 600
00000.M2TS      4608 (0x1200)   0x90            PGS             eng (English)           6739,650                40                      34 064 603      191 043
00000.M2TS      4609 (0x1201)   0x90            PGS             eng (English)           6739,650                40                      34 054 348      190 992
00000.M2TS      4610 (0x1202)   0x90            PGS             fra (French)            6739,650                42                      35 312 541      198 421
00000.M2TS      4611 (0x1203)   0x90            PGS             deu (German)            6739,650                44                      36 742 396      206 169
00000.M2TS      4612 (0x1204)   0x90            PGS             ita (Italian)           6739,650                44                      37 153 266      208 420
00000.M2TS      4613 (0x1205)   0x90            PGS             nld (Dutch)             6739,650                35                      29 672 281      167 265
00000.M2TS      4614 (0x1206)   0x90            PGS             por (Portuguese)        6739,650                43                      36 343 538      203 956
00000.M2TS      4615 (0x1207)   0x90            PGS             por (Portuguese)        6739,650                40                      33 504 736      188 457
00000.M2TS      4616 (0x1208)   0x90            PGS             spa (Spanish)           6739,650                39                      32 992 932      185 686
00000.M2TS      4617 (0x1209)   0x90            PGS             spa (Spanish)           6739,650                39                      33 192 937      186 795
00000.M2TS      4618 (0x120A)   0x90            PGS             jpn (Japanese)          6739,650                31                      25 905 367      147 637
00000.M2TS      4619 (0x120B)   0x90            PGS             swe (Swedish)           6739,650                40                      33 403 519      187 906
00000.M2TS      4620 (0x120C)   0x90            PGS             hin (Hindi)             6739,650                27                      22 699 378      130 307
<---- END FORUMS PASTE ---->
QUICK SUMMARY:
Disc Title: Iron Maiden - Flight 666
Disc Size: 44 129 305 488 bytes
Protection: AACS
BD-Java: No
Playlist: 00000.MPLS
Size: 24 955 908 096 bytes
Length: 1:52:19
Total Bitrate: 29,62 Mbps
Video: MPEG-4 AVC Video / 19999 kbps / 1080p / 23,976 fps / 16:9 / High Profile 4.1
Audio: LPCM Audio / English / 4608 kbps / 5.1 / 48 kHz / 4608 kbps / 16-bit
Audio: DTS-HD Master Audio / English / 2444 kbps / 5.1 / 48 kHz / 2444 kbps / 16-bit (DTS Core: 5.1 / 48 kHz / 1509 kbps / 16-bit)
Audio: Dolby Digital Audio / English / 384 kbps / 2.0 / 48 kHz / 384 kbps
Subtitle: English / 40,434 kbps
Subtitle: English / 40,422 kbps
Subtitle: Dutch / 35,221 kbps
Subtitle: French / 41,916 kbps
Subtitle: German / 43,613 kbps
Subtitle: Hindi / 26,944 kbps
Subtitle: Italian / 44,101 kbps
Subtitle: Japanese / 30,749 kbps
Subtitle: Portuguese / 43,139 kbps
Subtitle: Portuguese / 39,770 kbps
Subtitle: Spanish / 39,162 kbps
Subtitle: Spanish / 39,400 kbps
Subtitle: Swedish / 39,650 kbps
********************
PLAYLIST: 00001.MPLS
********************
<--- BEGIN FORUMS PASTE --->
Код:
Total   Video
Title                                                           Codec   Length  Movie Size      Disc Size       Bitrate Bitrate Main Audio Track                          Secondary Audio Track
-----                                                           ------  ------- --------------  --------------  ------- ------- ------------------                        ---------------------
00001.MPLS                                                      AVC     1:43:14 18 965 694 336  44 129 305 488  24,49   15,18   LPCM 5.1 4608Kbps (48kHz/16-bit)          DTS-HD Master 5.1 2866Kbps (48kHz/16-bit)
Код:
DISC INFO:
Disc Title:     Iron Maiden - Flight 666
Disc Size:      44 129 305 488 bytes
Protection:     AACS
BD-Java:        No
BDInfo:         0.5.2
PLAYLIST REPORT:
Name:                   00001.MPLS
Size:                   18 965 694 336 bytes
Length:                 1:43:14 (h:m:s)
Total Bitrate:          24,49 Mbps
Description:
VIDEO:
Codec                   Bitrate             Description
-----                   -------             -----------
MPEG-4 AVC Video        15185 kbps          1080p / 23,976 fps / 16:9 / High Profile 4.1
AUDIO:
Codec                           Language        Bitrate         Description
-----                           --------        -------         -----------
LPCM Audio                      English         4608 kbps       5.1 / 48 kHz / 4608 kbps / 16-bit
DTS-HD Master Audio             English         2866 kbps       5.1 / 48 kHz / 2866 kbps / 16-bit (DTS Core: 5.1 / 48 kHz / 1509 kbps / 16-bit)
Dolby Digital Audio             English         384 kbps        2.0 / 48 kHz / 384 kbps
SUBTITLES:
Codec                           Language        Bitrate         Description
-----                           --------        -------         -----------
Presentation Graphics           English         0,002 kbps
Presentation Graphics           English         0,002 kbps
Presentation Graphics           Dutch           0,002 kbps
Presentation Graphics           French          0,002 kbps
Presentation Graphics           German          0,002 kbps
Presentation Graphics           Hindi           0,002 kbps
Presentation Graphics           Italian         0,002 kbps
Presentation Graphics           Japanese        0,002 kbps
Presentation Graphics           Portuguese      0,002 kbps
Presentation Graphics           Portuguese      0,002 kbps
Presentation Graphics           Spanish         0,002 kbps
Presentation Graphics           Spanish         0,002 kbps
Presentation Graphics           Swedish         0,002 kbps
FILES:
Name            Time In         Length          Size            Total Bitrate
----            -------         ------          ----            -------------
00001.M2TS      0:00:00.000     1:43:14.188     18 965 694 336  24 495
CHAPTERS:
Number          Time In         Length          Avg Video Rate  Max 1-Sec Rate  Max 1-Sec Time  Max 5-Sec Rate  Max 5-Sec Time  Max 10Sec Rate  Max 10Sec Time  Avg Frame Size  Max Frame Size  Max Frame Time
------          -------         ------          --------------  --------------  --------------  --------------  --------------  --------------  --------------  --------------  --------------  --------------
1               0:00:00.000     0:05:37.879     15 942 kbps     31 149 kbps     00:04:54.210    25 110 kbps     00:03:09.647    21 550 kbps     00:03:04.934    83 103 bytes    369 418 bytes   00:00:58.183
2               0:05:37.879     0:06:00.568     16 001 kbps     33 204 kbps     00:08:08.029    23 685 kbps     00:11:12.213    20 542 kbps     00:08:06.694    83 424 bytes    328 005 bytes   00:05:54.937
3               0:11:38.447     0:06:59.669     15 047 kbps     32 266 kbps     00:16:10.135    26 816 kbps     00:17:29.631    23 483 kbps     00:17:30.007    78 447 bytes    304 496 bytes   00:12:19.363
4               0:18:38.117     0:04:14.879     15 407 kbps     33 021 kbps     00:19:15.237    25 325 kbps     00:21:55.355    21 008 kbps     00:21:55.272    80 325 bytes    325 614 bytes   00:22:52.120
5               0:22:52.996     0:06:23.299     14 823 kbps     32 363 kbps     00:28:23.576    26 160 kbps     00:28:21.449    22 226 kbps     00:28:18.988    77 278 bytes    314 711 bytes   00:27:05.498
6               0:29:16.296     0:05:00.466     14 591 kbps     31 439 kbps     00:33:21.290    23 679 kbps     00:33:32.260    21 036 kbps     00:33:27.213    76 070 bytes    348 062 bytes   00:30:19.901
7               0:34:16.763     0:03:44.474     14 424 kbps     30 999 kbps     00:35:31.129    22 864 kbps     00:36:48.205    19 326 kbps     00:34:40.369    75 198 bytes    337 225 bytes   00:36:19.093
8               0:38:01.237     0:13:50.079     14 902 kbps     33 335 kbps     00:41:38.120    24 896 kbps     00:46:50.808    23 155 kbps     00:47:25.926    77 691 bytes    317 815 bytes   00:41:12.094
9               0:51:51.316     0:07:33.286     14 950 kbps     36 060 kbps     00:57:17.517    32 087 kbps     00:53:39.674    26 723 kbps     00:53:34.669    77 943 bytes    357 271 bytes   00:58:00.810
10              0:59:24.602     0:07:31.033     16 762 kbps     30 310 kbps     01:01:46.202    24 482 kbps     01:03:14.499    22 963 kbps     01:03:12.205    87 387 bytes    372 133 bytes   01:00:35.715
11              1:06:55.636     0:04:10.625     16 089 kbps     32 631 kbps     01:10:04.116    27 150 kbps     01:10:03.824    22 892 kbps     01:09:59.737    83 879 bytes    304 230 bytes   01:08:05.998
12              1:11:06.262     0:07:39.584     13 943 kbps     32 909 kbps     01:13:18.018    24 030 kbps     01:17:53.043    21 297 kbps     01:13:16.600    72 693 bytes    352 467 bytes   01:14:56.074
13              1:18:45.846     0:05:31.831     16 863 kbps     34 691 kbps     01:22:36.326    28 430 kbps     01:22:32.530    25 039 kbps     01:23:28.044    87 918 bytes    331 882 bytes   01:19:15.375
14              1:24:17.677     0:06:03.488     14 395 kbps     30 402 kbps     01:25:26.663    21 329 kbps     01:25:58.278    19 392 kbps     01:26:17.213    75 050 bytes    338 768 bytes   01:27:20.235
15              1:30:21.165     0:04:38.903     15 106 kbps     31 501 kbps     01:33:53.461    22 042 kbps     01:33:20.386    19 745 kbps     01:33:20.845    78 758 bytes    300 866 bytes   01:32:24.413
16              1:35:00.069     0:08:14.118     14 508 kbps     32 245 kbps     01:35:34.228    23 197 kbps     01:36:46.509    19 990 kbps     01:42:24.888    75 636 bytes    331 037 bytes   01:39:44.061
STREAM DIAGNOSTICS:
File            PID             Type            Codec           Language                Seconds                 Bitrate                 Bytes           Packets
----            ---             ----            -----           --------                --------------          --------------          -------------   -----
00001.M2TS      4113 (0x1011)   0x1B            AVC                                     6271,140                14 999                  11 757 942 729  63 989 563
00001.M2TS      4352 (0x1100)   0x81            AC3             eng (English)           6271,140                384                     301 023 744     1 763 811
00001.M2TS      4353 (0x1101)   0x86            DTS-HD MA       eng (English)           6271,140                2 850                   2 234 048 448   13 118 588
00001.M2TS      4354 (0x1102)   0x80            LPCM            eng (English)           6271,140                4 614                   3 617 265 652   20 068 048
00001.M2TS      4608 (0x1200)   0x90            PGS             eng (English)           6271,140                0                       1 717           17
00001.M2TS      4609 (0x1201)   0x90            PGS             eng (English)           6271,140                0                       1 717           17
00001.M2TS      4610 (0x1202)   0x90            PGS             fra (French)            6271,140                0                       1 717           17
00001.M2TS      4611 (0x1203)   0x90            PGS             deu (German)            6271,140                0                       1 717           17
00001.M2TS      4612 (0x1204)   0x90            PGS             ita (Italian)           6271,140                0                       1 717           17
00001.M2TS      4613 (0x1205)   0x90            PGS             nld (Dutch)             6271,140                0                       1 717           17
00001.M2TS      4614 (0x1206)   0x90            PGS             por (Portuguese)        6271,140                0                       1 717           17
00001.M2TS      4615 (0x1207)   0x90            PGS             por (Portuguese)        6271,140                0                       1 717           17
00001.M2TS      4616 (0x1208)   0x90            PGS             spa (Spanish)           6271,140                0                       1 717           17
00001.M2TS      4617 (0x1209)   0x90            PGS             spa (Spanish)           6271,140                0                       1 717           17
00001.M2TS      4618 (0x120A)   0x90            PGS             jpn (Japanese)          6271,140                0                       1 717           17
00001.M2TS      4619 (0x120B)   0x90            PGS             swe (Swedish)           6271,140                0                       1 717           17
00001.M2TS      4620 (0x120C)   0x90            PGS             hin (Hindi)             6271,140                0                       1 717           17
<---- END FORUMS PASTE ---->
QUICK SUMMARY:
Disc Title: Iron Maiden - Flight 666
Disc Size: 44 129 305 488 bytes
Protection: AACS
BD-Java: No
Playlist: 00001.MPLS
Size: 18 965 694 336 bytes
Length: 1:43:14
Total Bitrate: 24,49 Mbps
Video: MPEG-4 AVC Video / 15185 kbps / 1080p / 23,976 fps / 16:9 / High Profile 4.1
Audio: LPCM Audio / English / 4608 kbps / 5.1 / 48 kHz / 4608 kbps / 16-bit
Audio: DTS-HD Master Audio / English / 2866 kbps / 5.1 / 48 kHz / 2866 kbps / 16-bit (DTS Core: 5.1 / 48 kHz / 1509 kbps / 16-bit)
Audio: Dolby Digital Audio / English / 384 kbps / 2.0 / 48 kHz / 384 kbps
Subtitle: English / 0,002 kbps
Subtitle: English / 0,002 kbps
Subtitle: Dutch / 0,002 kbps
Subtitle: French / 0,002 kbps
Subtitle: German / 0,002 kbps
Subtitle: Hindi / 0,002 kbps
Subtitle: Italian / 0,002 kbps
Subtitle: Japanese / 0,002 kbps
Subtitle: Portuguese / 0,002 kbps
Subtitle: Portuguese / 0,002 kbps
Subtitle: Spanish / 0,002 kbps
Subtitle: Spanish / 0,002 kbps
Subtitle: Swedish / 0,002 kbps
********************
PLAYLIST: 00003.MPLS
********************
<--- BEGIN FORUMS PASTE --->
Код:
Total   Video
Title                                                           Codec   Length  Movie Size      Disc Size       Bitrate Bitrate Main Audio Track                          Secondary Audio Track
-----                                                           ------  ------- --------------  --------------  ------- ------- ------------------                        ---------------------
00003.MPLS                                                      VC-1    0:00:11 22 953 984      44 129 305 488  16,07   14,63   DD AC3 5.1 640Kbps
Код:
DISC INFO:
Disc Title:     Iron Maiden - Flight 666
Disc Size:      44 129 305 488 bytes
Protection:     AACS
BD-Java:        No
BDInfo:         0.5.2
PLAYLIST REPORT:
Name:                   00003.MPLS
Size:                   22 953 984 bytes
Length:                 0:00:11 (h:m:s)
Total Bitrate:          16,07 Mbps
Description:
VIDEO:
Codec                   Bitrate             Description
-----                   -------             -----------
VC-1 Video              14628 kbps          1080p / 23,976 fps / 16:9 / Advanced Profile 3
AUDIO:
Codec                           Language        Bitrate         Description
-----                           --------        -------         -----------
Dolby Digital Audio             English         640 kbps        5.1 / 48 kHz / 640 kbps
FILES:
Name            Time In         Length          Size            Total Bitrate
----            -------         ------          ----            -------------
00006.M2TS      0:00:00.000     0:00:11.428     22 953 984      16 068
CHAPTERS:
Number          Time In         Length          Avg Video Rate  Max 1-Sec Rate  Max 1-Sec Time  Max 5-Sec Rate  Max 5-Sec Time  Max 10Sec Rate  Max 10Sec Time  Avg Frame Size  Max Frame Size  Max Frame Time
------          -------         ------          --------------  --------------  --------------  --------------  --------------  --------------  --------------  --------------  --------------  --------------
1               0:00:00.000     0:00:11.428     14 628 kbps     32 905 kbps     00:00:01.042    16 076 kbps     00:00:01.000    15 591 kbps     00:00:01.042    76 266 bytes    405 209 bytes   00:00:09.009
STREAM DIAGNOSTICS:
File            PID             Type            Codec           Language                Seconds                 Bitrate                 Bytes           Packets
----            ---             ----            -----           --------                --------------          --------------          -------------   -----
00006.M2TS      4113 (0x1011)   0xEA            VC-1                                    11,345                  14 736                  20 896 803      113 744
00006.M2TS      4352 (0x1100)   0x81            AC3             eng (English)           11,345                  646                     916 480         5 370
<---- END FORUMS PASTE ---->
QUICK SUMMARY:
Disc Title: Iron Maiden - Flight 666
Disc Size: 44 129 305 488 bytes
Protection: AACS
BD-Java: No
Playlist: 00003.MPLS
Size: 22 953 984 bytes
Length: 0:00:11
Total Bitrate: 16,07 Mbps
Video: VC-1 Video / 14628 kbps / 1080p / 23,976 fps / 16:9 / Advanced Profile 3
Audio: Dolby Digital Audio / English / 640 kbps / 5.1 / 48 kHz / 640 kbps
График битрейта для нужного playlist - Generate Chart.
skrin

[Профиль]  [ЛС] 

AlexSchl

VIP (Заслуженный)

Стаж: 9 лет 1 месяц

Сообщений: 3041

AlexSchl · 08-Апр-12 13:09 (спустя 1 мин.)

[Цитировать] 

MPEG2Repair
Программа предназначена для выявления и устранения ошибок в транспортном потоке MPEG2, улучшения совместимости с декодерами. Также возможно получение подробной информации о видео и аудио.
Последнюю версию можно скачать здесь.
Пример работы программы с второй частью Sonisphere 2009.
1. В поле Input File выбираем нужный файл, жмём Find PID's.
2. Доступны 2 функции: исправление ошибок (Repair Errors) и лог ошибок (Log Errors). Возможно их одновременное использование, но Log Errors будет сделан для исходного, а не исправленного файла.
2.1 Repair Errors
Выбираем Repair Errors. В поле Output Files выбираем путь для сохранения исправленного файла.
2.2 Log Errors
Выбираем Log Errors. В поле Log File выбираем путь для сохранения лога (текстовый файл).
3. Start
Log Errors
MPEG2Repair: X:\Sonisphere 2009 Hour 2 1080i HDTV DD5.1 MPEG2-CtrlHD.ts
Sequence Frame 14259(11-B) / Time 0:07:55 :
VideoWarning: Unexpected TFF/RFF flag change in previous GOP.
Sequence Frame 39473(13-B) / Time 0:21:57 :
VideoWarning: Unexpected TFF/RFF flag change in previous GOP.
Sequence Frame 58209(11-B) / Time 0:32:22 :
VideoWarning: Unexpected TFF/RFF flag change in previous GOP.
Sequence Frame 62430(3-P) / Time 0:34:43 :
AudioError: Corrupted AC3 frame of 1534 payload bytes at file offset 4827429992
Additional error(s) detected. Increase VerboseLogLevel in INI file for details.
Sequence Frame 86024(0-I) / Time 0:47:50 :
Info: End of MPEG2 sequence
Sequence Summary:
File Size Processed: 6.07 GB, Play Time: 00h:47m:50s
1920 x 1080, 29.97 fps, 18.10 Mbps (17.28 Mbps Average).
Average Video Quality: 70.37 KB/Frame, 0.28 Bits/Pixel.
AC3 Audio: 3/2 Channels (L, C, R, SL, SR) + LFE, 48.0 kHz, 384 kbps.
Dialog Normalization: -23.0 dB, Center Mix Level: -3.0 dB, Surround Mix Level: -3.0 dB
0 of 86024 video frames found with errors.
2 of 89697 audio frames found with errors.
0 corrupted video bytes in file.
0.000000 seconds of video timestamp gaps.
0.000000 seconds of audio timestamp gaps.
End of Log
Ошибки в логе.
VideoWarning: Unexpected TFF/RFF flag change in previous GOP.
В этих местах была вырезана реклама.
AudioError: Corrupted AC3 frame of 1534 payload bytes at file offset 4827429992
В этом месте есть небольшой сбой в аудио дорожке.
Отчёт MediaInfo
General
ID : 1
Complete name : X:\Sonisphere 2009 Hour 2 1080i HDTV DD5.1 MPEG2-CtrlHD.ts
Format : MPEG-TS
File size : 6.07 GiB
Duration : 47mn 50s
Overall bit rate : 18.2 Mbps
Video
ID : 33 (0x21)
Menu ID : 1 (0x1)
Format : MPEG Video
Format version : Version 2
Format profile : Main@High
Format settings, Matrix : Default
Duration : 47mn 50s
Bit rate mode : Variable
Bit rate : 16.5 Mbps
Nominal bit rate : 18.1 Mbps
Width : 1 920 pixels
Height : 1 080 pixels
Display aspect ratio : 16/9
Frame rate : 29.970 fps
Standard : Component
Colorimetry : 4:2:0
Scan type : Interlaced
Scan order : Top Field First
Bits/(Pixel*Frame) : 0.266
Stream size : 5.52 GiB (91%)
Audio
ID : 36 (0x24)
Menu ID : 1 (0x1)
Format : AC-3
Format/Info : Audio Coding 3
Duration : 47mn 50s
Bit rate mode : Constant
Bit rate : 384 Kbps
Channel(s) : 2 channels
Channel positions : L R
Sampling rate : 48.0 KHz
Stream size : 131 MiB (2%)
Скриншоты






Определение технических данных с помощью MediaInfo
[Профиль]  [ЛС] 
 
Тема закрыта
Loading...
Error