Адрес РуТрекера для пользователей РФ - MainTracker.org

Расскажи друзьям:  

Сваты 3 / Серии: 12 из 12 (Андрей Яковлев) [2009, Комедия, семейный, 4хDVD5 (Custom)]

Страницы:  1

Ответить
Автор
Сообщение

Lenape

Moderator

Стаж: 8 лет 3 месяца

Сообщений: 4536

Lenape · 01-Дек-10 02:55 (7 лет назад, ред. 14-Апр-11 16:33)

Сваты 3
Год выпуска: 2009
Производство: студия Квартал 95
Жанр: Комедия, семейный
Продолжительность:
Диск 1 (1 - 3 серии): 151 мин.
Диск 2 (4 - 6 серии): 146 мин.
Диск 3 (7 - 9 серии): 155 мин.
Диск 4 (10 - 12 серии): 154 мин.
Субтитры: украинские
Режиссёр: Андрей Яковлев
В ролях: Людмила Артемьева, Федор Добронравов, Татьяна Кравченко, Анатолий Васильев, София Стеценко, Николай Добрынин, Маргарита Шубина
Описание: Семейные пары Будько (типичных сельских жителей) и Ковалевых (городских интеллигентов) объединяет только одно - любовь к внучке Женечке! Ради нее они готовы терпеть все! Даже присутствие друг друга...
Молодые родители Женечки - Маша и Максим, уехав в Голландию, оставили в поселке дочку на попечение Будько. Ковалевы приезжают помочь присмотреть за любимой внучкой, а заодно подготовить ее к поступлению в лицей! Так под одной крышей оказываются две семьи - городская и деревенская...
Доп. информация: 1. Данный релиз сделан из моей раздачи лицензионных 2хDVD9 с помощью программы DVDReMakePro 3.6.3
2. Получилось 4хDVD5 без потери качества (по 3 серии на каждый диск)
3. Кнопки выбора серий, не вошедших на каждый диск, сделаны неактивными
4. Дополнительных материалов нет
5. Русских субтитров нет (есть украинские)
6. Присутствует только одна Русская звуковая дорожка
Все раздачи сериала
Сэмпл - диск 1: http://multi-up.com/385129
Сэмпл - диск 2: http://multi-up.com/385143
Сэмпл - диск 3: http://multi-up.com/385145
Сэмпл - диск 4: http://multi-up.com/385144
Информация по дискам (одинаковая для всех четырех):
Качество: DVD5 (Custom)
Формат: DVD-Video
Видео кодек: MPEG2
Аудио кодек: AC3
Видео: PAL 4:3 (720x576) VBR
Аудио: Русский: AC3, 2/0 ch, 256Kbps, Delay 0 mSec
MediaInfo для 1-го диска
Standard : PAL
Resolution : 8 bits
Colorimetry : 4:2:0
Scan type : Interlaced
Scan order : Top Field First
Bits/(Pixel*Frame) : 1.630
Stream size : 969 MiB (95%)
Audio
ID : 128 (0x80)
Format : AC-3
Format/Info : Audio Coding 3
Duration : 8mn 0s
Bit rate mode : Constant
Bit rate : 256 Kbps
Channel(s) : 2 channels
Channel positions : L R
Sampling rate : 48.0 KHz
Video delay : -80ms
Stream size : 14.7 MiB (1%)
Text
ID : 32 (0x20)
Format : RLE
Format/Info : Run-length encoding
Menu
General
Complete name : D:\МОИ РАЗДАЧИ\Сваты 3 (4xDVD5)\Сваты 3 (01 - 03 серии)\VIDEO_TS\VTS_01_2.VOB
Format : MPEG-PS
File size : 1 024 MiB
Duration : 6mn 2s
Overall bit rate : 23.7 Mbps
Video
ID : 224 (0xE0)
Format : MPEG Video
Format version : Version 2
Format profile : Main@Main
Format settings, BVOP : Yes
Format settings, Matrix : Default
Duration : 6mn 2s
Bit rate mode : Variable
Bit rate : 22.5 Mbps
Nominal bit rate : 9 400 Kbps
Width : 720 pixels
Height : 576 pixels
Display aspect ratio : 4:3
Frame rate : 25.000 fps
Standard : PAL
Resolution : 8 bits
Colorimetry : 4:2:0
Scan type : Interlaced
Scan order : Top Field First
Bits/(Pixel*Frame) : 2.170
Stream size : 972 MiB (95%)
Audio
ID : 128 (0x80)
Format : AC-3
Format/Info : Audio Coding 3
Duration : 6mn 2s
Bit rate mode : Constant
Bit rate : 256 Kbps
Channel(s) : 2 channels
Channel positions : L R
Sampling rate : 48.0 KHz
Video delay : -272ms
Stream size : 11.1 MiB (1%)
Text
ID : 32 (0x20)
Format : RLE
Format/Info : Run-length encoding
Duration : 5mn 55s
Video delay : 2s 160ms
Menu
General
Complete name : D:\МОИ РАЗДАЧИ\Сваты 3 (4xDVD5)\Сваты 3 (01 - 03 серии)\VIDEO_TS\VTS_01_3.VOB
Format : MPEG-PS
File size : 585 MiB
Duration : 33mn 58s
Overall bit rate : 2 408 Kbps
Video
ID : 224 (0xE0)
Format : MPEG Video
Format version : Version 2
Format profile : Main@Main
Format settings, BVOP : Yes
Format settings, Matrix : Default
Duration : 33mn 58s
Bit rate mode : Variable
Bit rate : 2 057 Kbps
Nominal bit rate : 9 400 Kbps
Width : 720 pixels
Height : 576 pixels
Display aspect ratio : 4:3
Frame rate : 25.000 fps
Standard : PAL
Resolution : 8 bits
Colorimetry : 4:2:0
Scan type : Interlaced
Scan order : Top Field First
Bits/(Pixel*Frame) : 0.198
Stream size : 500 MiB (85%)
Audio
ID : 128 (0x80)
Format : AC-3
Format/Info : Audio Coding 3
Duration : 33mn 58s
Bit rate mode : Constant
Bit rate : 256 Kbps
Channel(s) : 2 channels
Channel positions : L R
Sampling rate : 48.0 KHz
Video delay : -720ms
Stream size : 62.2 MiB (11%)
Text
ID : 32 (0x20)
Format : RLE
Format/Info : Run-length encoding
Video delay : 1s 520ms
Menu
MediaInfo для 2-го диска
General
Complete name : D:\МОИ РАЗДАЧИ\Сваты 3 (4xDVD5)\Сваты 3 (04 - 06 серии)\VIDEO_TS\VIDEO_TS.BUP
Format : DVD Video
Format profile : Menu
File size : 12.0 KiB
Video
ID : 0xE0
Format : MPEG Video
Format version : Version 2
Bit rate mode : Variable
Width : 720 pixels
Height : 576 pixels
Display aspect ratio : 4:3
Frame rate : 25.000 fps
Standard : PAL
Audio
Format : AC-3
Format/Info : Audio Coding 3
Channel(s) : 2 channels
Sampling rate : 48.0 KHz
Text
Format : RLE
Format/Info : Run-length encoding
Resolution : 2 bits
General
Complete name : D:\МОИ РАЗДАЧИ\Сваты 3 (4xDVD5)\Сваты 3 (04 - 06 серии)\VIDEO_TS\VIDEO_TS.IFO
Format : DVD Video
Format profile : Menu
File size : 12.0 KiB
Video
ID : 0xE0
Format : MPEG Video
Format version : Version 2
Bit rate mode : Variable
Width : 720 pixels
Height : 576 pixels
Display aspect ratio : 4:3
Frame rate : 25.000 fps
Standard : PAL
Audio
Format : AC-3
Format/Info : Audio Coding 3
Channel(s) : 2 channels
Sampling rate : 48.0 KHz
Text
Format : RLE
Format/Info : Run-length encoding
Resolution : 2 bits
General
Complete name : D:\МОИ РАЗДАЧИ\Сваты 3 (4xDVD5)\Сваты 3 (04 - 06 серии)\VIDEO_TS\VIDEO_TS.VOB
Format : MPEG-PS
File size : 692 KiB
Video
ID : 224 (0xE0)
Format : MPEG Video
Format version : Version 2
Format profile : Main@Main
Format settings, BVOP : No
Format settings, Matrix : Default
Bit rate mode : Constant
Bit rate : 8 000 Kbps
Width : 720 pixels
Height : 576 pixels
Display aspect ratio : 4:3
Frame rate : 25.000 fps
Standard : PAL
Resolution : 8 bits
Colorimetry : 4:2:0
Scan type : Progressive
Scan order : Top Field First
Bits/(Pixel*Frame) : 0.772
Audio
ID : 128 (0x80)
Format : AC-3
Format/Info : Audio Coding 3
Bit rate mode : Constant
Bit rate : 192 Kbps
Channel(s) : 2 channels
Channel positions : L R
Sampling rate : 48.0 KHz
Text
ID : 32 (0x20)
Format : RLE
Format/Info : Run-length encoding
Menu
General
Complete name : D:\МОИ РАЗДАЧИ\Сваты 3 (4xDVD5)\Сваты 3 (04 - 06 серии)\VIDEO_TS\VTS_01_0.BUP
Format : DVD Video
Format profile : Program
File size : 106 KiB
Video
ID : 0xE0
Format : MPEG Video
Format version : Version 2
Bit rate mode : Variable
Width : 720 pixels
Height : 576 pixels
Display aspect ratio : 4:3
Frame rate : 25.000 fps
Standard : PAL
Audio
ID : 0x80
Format : AC-3
Format/Info : Audio Coding 3
Channel(s) : 2 channels
Sampling rate : 48.0 KHz
Language : Russian
Text
ID : 0x20
Format : RLE
Format/Info : Run-length encoding
Resolution : 2 bits
Language : Ukrainian
Menu #1
List (Audio) : 0
List (Subtitles 4/3) : 0
List (Subtitles Wide) : 0
List (Subtitles Letterbox) : 0
List (Subtitles Pan&Scan) : 0
Menu #2
General
Complete name : D:\МОИ РАЗДАЧИ\Сваты 3 (4xDVD5)\Сваты 3 (04 - 06 серии)\VIDEO_TS\VTS_01_0.IFO
Format : DVD Video
Format profile : Program
File size : 106 KiB
Video
ID : 0xE0
Format : MPEG Video
Format version : Version 2
Bit rate mode : Variable
Width : 720 pixels
Height : 576 pixels
Display aspect ratio : 4:3
Frame rate : 25.000 fps
Standard : PAL
Audio
ID : 0x80
Format : AC-3
Format/Info : Audio Coding 3
Channel(s) : 2 channels
Sampling rate : 48.0 KHz
Language : Russian
Text
ID : 0x20
Format : RLE
Format/Info : Run-length encoding
Resolution : 2 bits
Language : Ukrainian
Menu #1
List (Audio) : 0
List (Subtitles 4/3) : 0
List (Subtitles Wide) : 0
List (Subtitles Letterbox) : 0
List (Subtitles Pan&Scan) : 0
Menu #2
General
Complete name : D:\МОИ РАЗДАЧИ\Сваты 3 (4xDVD5)\Сваты 3 (04 - 06 серии)\VIDEO_TS\VTS_01_0.VOB
Format : MPEG-PS
File size : 694 KiB
Video
ID : 224 (0xE0)
Format : MPEG Video
Format version : Version 2
Format profile : Main@Main
Format settings, BVOP : No
Format settings, Matrix : Default
Bit rate mode : Constant
Bit rate : 8 000 Kbps
Width : 720 pixels
Height : 576 pixels
Display aspect ratio : 4:3
Frame rate : 25.000 fps
Standard : PAL
Resolution : 8 bits
Colorimetry : 4:2:0
Scan type : Progressive
Scan order : Top Field First
Bits/(Pixel*Frame) : 0.772
Audio
ID : 128 (0x80)
Format : AC-3
Format/Info : Audio Coding 3
Bit rate mode : Constant
Bit rate : 192 Kbps
Channel(s) : 2 channels
Channel positions : L R
Sampling rate : 48.0 KHz
Text
ID : 32 (0x20)
Format : RLE
Format/Info : Run-length encoding
Menu
General
Complete name : D:\МОИ РАЗДАЧИ\Сваты 3 (4xDVD5)\Сваты 3 (04 - 06 серии)\VIDEO_TS\VTS_01_1.VOB
Format : MPEG-PS
File size : 1 024 MiB
Duration : 36mn 38s
Overall bit rate : 3 908 Kbps
Video
ID : 224 (0xE0)
Format : MPEG Video
Format version : Version 2
Format profile : Main@Main
Format settings, BVOP : No
Format settings, Matrix : Default
Duration : 36mn 38s
Bit rate mode : Constant
Bit rate : 3 497 Kbps
Nominal bit rate : 8 000 Kbps
Width : 720 pixels
Height : 576 pixels
Display aspect ratio : 16:9
Frame rate : 25.000 fps
Standard : PAL
Resolution : 8 bits
Colorimetry : 4:2:0
Scan type : Progressive
Scan order : Top Field First
Bits/(Pixel*Frame) : 0.337
Stream size : 916 MiB (89%)
Audio
ID : 128 (0x80)
Format : AC-3
Format/Info : Audio Coding 3
Duration : 36mn 37s
Bit rate mode : Constant
Bit rate : 256 Kbps
Channel(s) : 2 channels
Channel positions : L R
Sampling rate : 48.0 KHz
Stream size : 67.1 MiB (7%)
Text
ID : 32 (0x20)
Format : RLE
Format/Info : Run-length encoding
Menu
General
Complete name : D:\МОИ РАЗДАЧИ\Сваты 3 (4xDVD5)\Сваты 3 (04 - 06 серии)\VIDEO_TS\VTS_01_2.VOB
Format : MPEG-PS
File size : 1 024 MiB
Video
ID : 224 (0xE0)
Format : MPEG Video
Format version : Version 2
Format profile : Main@Main
Format settings, BVOP : Yes
Format settings, Matrix : Default
Bit rate mode : Variable
Bit rate : 9 400 Kbps
Width : 720 pixels
Height : 576 pixels
Display aspect ratio : 4:3
Frame rate : 25.000 fps
Standard : PAL
Resolution : 8 bits
Colorimetry : 4:2:0
Scan type : Interlaced
Scan order : Top Field First
Bits/(Pixel*Frame) : 0.907
Audio
ID : 128 (0x80)
Format : AC-3
Format/Info : Audio Coding 3
Bit rate mode : Constant
Bit rate : 256 Kbps
Channel(s) : 2 channels
Channel positions : L R
Sampling rate : 48.0 KHz
Video delay : -688ms
Text
ID : 32 (0x20)
Format : RLE
Format/Info : Run-length encoding
Video delay : 3s 600ms
Menu
General
Complete name : D:\МОИ РАЗДАЧИ\Сваты 3 (4xDVD5)\Сваты 3 (04 - 06 серии)\VIDEO_TS\VTS_01_3.VOB
Format : MPEG-PS
File size : 1 024 MiB
Video
ID : 224 (0xE0)
Format : MPEG Video
Format version : Version 2
Format profile : Main@Main
Format settings, BVOP : Yes
Format settings, Matrix : Default
Bit rate mode : Variable
Bit rate : 9 400 Kbps
Width : 720 pixels
Height : 576 pixels
Display aspect ratio : 4:3
Frame rate : 25.000 fps
Standard : PAL
Resolution : 8 bits
Colorimetry : 4:2:0
Scan type : Interlaced
Scan order : Top Field First
Bits/(Pixel*Frame) : 0.907
Audio
ID : 128 (0x80)
Format : AC-3
Format/Info : Audio Coding 3
Bit rate mode : Constant
Bit rate : 256 Kbps
Channel(s) : 2 channels
Channel positions : L R
Sampling rate : 48.0 KHz
Video delay : -592ms
Text
ID : 32 (0x20)
Format : RLE
Format/Info : Run-length encoding
Video delay : 1s 480ms
Menu
General
Complete name : D:\МОИ РАЗДАЧИ\Сваты 3 (4xDVD5)\Сваты 3 (04 - 06 серии)\VIDEO_TS\VTS_01_4.VOB
Format : MPEG-PS
File size : 1 024 MiB
Duration : 36mn 41s
Overall bit rate : 3 901 Kbps
Video
ID : 224 (0xE0)
Format : MPEG Video
Format version : Version 2
Format profile : Main@Main
Format settings, BVOP : No
Format settings, Matrix : Default
Duration : 36mn 41s
Bit rate mode : Variable
Bit rate : 3 490 Kbps
Nominal bit rate : 9 400 Kbps
Width : 720 pixels
Height : 576 pixels
Display aspect ratio : 4:3
Frame rate : 25.000 fps
Standard : PAL
Resolution : 8 bits
Colorimetry : 4:2:0
Scan type : Interlaced
Scan order : Top Field First
Bits/(Pixel*Frame) : 0.337
Stream size : 916 MiB (89%)
Audio
ID : 128 (0x80)
Format : AC-3
Format/Info : Audio Coding 3
Duration : 36mn 41s
Bit rate mode : Constant
Bit rate : 256 Kbps
Channel(s) : 2 channels
Channel positions : L R
Sampling rate : 48.0 KHz
Video delay : -192ms
Stream size : 67.2 MiB (7%)
Menu
General
Complete name : D:\МОИ РАЗДАЧИ\Сваты 3 (4xDVD5)\Сваты 3 (04 - 06 серии)\VIDEO_TS\VTS_01_5.VOB
Format : MPEG-PS
File size : 28.0 KiB
Duration : 192ms
Overall bit rate : 1 195 Kbps
Video
ID : 224 (0xE0)
Audio
ID : 128 (0x80)
Format : AC-3
Format/Info : Audio Coding 3
Duration : 192ms
Bit rate mode : Constant
Bit rate : 256 Kbps
Channel(s) : 2 channels
Channel positions : L R
Sampling rate : 48.0 KHz
Stream size : 6.00 KiB (21%)
MediaInfo для 3-го диска
General
Complete name : D:\МОИ РАЗДАЧИ\Сваты 3 (4xDVD5)\Сваты 3 (07 - 09 серии)\VIDEO_TS\VIDEO_TS.BUP
Format : DVD Video
Format profile : Menu
File size : 12.0 KiB
Video
ID : 0xE0
Format : MPEG Video
Format version : Version 2
Bit rate mode : Variable
Width : 720 pixels
Height : 576 pixels
Display aspect ratio : 4:3
Frame rate : 25.000 fps
Standard : PAL
Audio
Format : AC-3
Format/Info : Audio Coding 3
Channel(s) : 2 channels
Sampling rate : 48.0 KHz
Text
Format : RLE
Format/Info : Run-length encoding
Resolution : 2 bits
General
Complete name : D:\МОИ РАЗДАЧИ\Сваты 3 (4xDVD5)\Сваты 3 (07 - 09 серии)\VIDEO_TS\VIDEO_TS.IFO
Format : DVD Video
Format profile : Menu
File size : 12.0 KiB
Video
ID : 0xE0
Format : MPEG Video
Format version : Version 2
Bit rate mode : Variable
Width : 720 pixels
Height : 576 pixels
Display aspect ratio : 4:3
Frame rate : 25.000 fps
Standard : PAL
Audio
Format : AC-3
Format/Info : Audio Coding 3
Channel(s) : 2 channels
Sampling rate : 48.0 KHz
Text
Format : RLE
Format/Info : Run-length encoding
Resolution : 2 bits
General
Complete name : D:\МОИ РАЗДАЧИ\Сваты 3 (4xDVD5)\Сваты 3 (07 - 09 серии)\VIDEO_TS\VIDEO_TS.VOB
Format : MPEG-PS
File size : 692 KiB
Video
ID : 224 (0xE0)
Format : MPEG Video
Format version : Version 2
Format profile : Main@Main
Format settings, BVOP : No
Format settings, Matrix : Default
Bit rate mode : Constant
Bit rate : 8 000 Kbps
Width : 720 pixels
Height : 576 pixels
Display aspect ratio : 4:3
Frame rate : 25.000 fps
Standard : PAL
Resolution : 8 bits
Colorimetry : 4:2:0
Scan type : Progressive
Scan order : Top Field First
Bits/(Pixel*Frame) : 0.772
Audio
ID : 128 (0x80)
Format : AC-3
Format/Info : Audio Coding 3
Bit rate mode : Constant
Bit rate : 192 Kbps
Channel(s) : 2 channels
Channel positions : L R
Sampling rate : 48.0 KHz
Text
ID : 32 (0x20)
Format : RLE
Format/Info : Run-length encoding
Menu
General
Complete name : D:\МОИ РАЗДАЧИ\Сваты 3 (4xDVD5)\Сваты 3 (07 - 09 серии)\VIDEO_TS\VTS_01_0.BUP
Format : DVD Video
Format profile : Program
File size : 112 KiB
Video
ID : 0xE0
Format : MPEG Video
Format version : Version 2
Bit rate mode : Variable
Width : 720 pixels
Height : 576 pixels
Display aspect ratio : 4:3
Frame rate : 25.000 fps
Standard : PAL
Audio
ID : 0x80
Format : AC-3
Format/Info : Audio Coding 3
Channel(s) : 2 channels
Sampling rate : 48.0 KHz
Language : Russian
Text
ID : 0x20
Format : RLE
Format/Info : Run-length encoding
Resolution : 2 bits
Language : Ukrainian
Menu #1
List (Audio) : 0
List (Subtitles 4/3) : 0
List (Subtitles Wide) : 0
List (Subtitles Letterbox) : 0
List (Subtitles Pan&Scan) : 0
Menu #2
List (Audio) : 0
General
Complete name : D:\МОИ РАЗДАЧИ\Сваты 3 (4xDVD5)\Сваты 3 (07 - 09 серии)\VIDEO_TS\VTS_01_0.IFO
Format : DVD Video
Format profile : Program
File size : 112 KiB
Video
ID : 0xE0
Format : MPEG Video
Format version : Version 2
Bit rate mode : Variable
Width : 720 pixels
Height : 576 pixels
Display aspect ratio : 4:3
Frame rate : 25.000 fps
Standard : PAL
Audio
ID : 0x80
Format : AC-3
Format/Info : Audio Coding 3
Channel(s) : 2 channels
Sampling rate : 48.0 KHz
Language : Russian
Text
ID : 0x20
Format : RLE
Format/Info : Run-length encoding
Resolution : 2 bits
Language : Ukrainian
Menu #1
List (Audio) : 0
List (Subtitles 4/3) : 0
List (Subtitles Wide) : 0
List (Subtitles Letterbox) : 0
List (Subtitles Pan&Scan) : 0
Menu #2
List (Audio) : 0
General
Complete name : D:\МОИ РАЗДАЧИ\Сваты 3 (4xDVD5)\Сваты 3 (07 - 09 серии)\VIDEO_TS\VTS_01_0.VOB
Format : MPEG-PS
File size : 696 KiB
Video
ID : 224 (0xE0)
Format : MPEG Video
Format version : Version 2
Format profile : Main@Main
Format settings, BVOP : No
Format settings, Matrix : Default
Bit rate mode : Constant
Bit rate : 8 000 Kbps
Width : 720 pixels
Height : 576 pixels
Display aspect ratio : 4:3
Frame rate : 25.000 fps
Standard : PAL
Resolution : 8 bits
Colorimetry : 4:2:0
Scan type : Progressive
Scan order : Top Field First
Bits/(Pixel*Frame) : 0.772
Audio
ID : 128 (0x80)
Format : AC-3
Format/Info : Audio Coding 3
Bit rate mode : Constant
Bit rate : 192 Kbps
Channel(s) : 2 channels
Channel positions : L R
Sampling rate : 48.0 KHz
Text
ID : 32 (0x20)
Format : RLE
Format/Info : Run-length encoding
Menu
General
Complete name : D:\МОИ РАЗДАЧИ\Сваты 3 (4xDVD5)\Сваты 3 (07 - 09 серии)\VIDEO_TS\VTS_01_1.VOB
Format : MPEG-PS
File size : 1 024 MiB
Duration : 41mn 26s
Overall bit rate : 3 455 Kbps
Video
ID : 224 (0xE0)
Format : MPEG Video
Format version : Version 2
Format profile : Main@Main
Format settings, BVOP : Yes
Format settings, Matrix : Default
Duration : 41mn 26s
Bit rate mode : Variable
Bit rate : 3 062 Kbps
Nominal bit rate : 9 400 Kbps
Width : 720 pixels
Height : 576 pixels
Display aspect ratio : 4:3
Frame rate : 25.000 fps
Standard : PAL
Resolution : 8 bits
Colorimetry : 4:2:0
Scan type : Interlaced
Scan order : Top Field First
Bits/(Pixel*Frame) : 0.295
Stream size : 907 MiB (89%)
Audio
ID : 128 (0x80)
Format : AC-3
Format/Info : Audio Coding 3
Duration : 41mn 26s
Bit rate mode : Constant
Bit rate : 256 Kbps
Channel(s) : 2 channels
Channel positions : L R
Sampling rate : 48.0 KHz
Video delay : -272ms
Stream size : 75.9 MiB (7%)
Text
ID : 32 (0x20)
Format : RLE
Format/Info : Run-length encoding
Menu
General
Complete name : D:\МОИ РАЗДАЧИ\Сваты 3 (4xDVD5)\Сваты 3 (07 - 09 серии)\VIDEO_TS\VTS_01_2.VOB
Format : MPEG-PS
File size : 1 024 MiB
Video
ID : 224 (0xE0)
Format : MPEG Video
Format version : Version 2
Format profile : Main@Main
Format settings, BVOP : No
Format settings, Matrix : Default
Bit rate mode : Variable
Bit rate : 9 400 Kbps
Width : 720 pixels
Height : 576 pixels
Display aspect ratio : 4:3
Frame rate : 25.000 fps
Standard : PAL
Resolution : 8 bits
Colorimetry : 4:2:0
Scan type : Interlaced
Scan order : Top Field First
Bits/(Pixel*Frame) : 0.907
Audio
ID : 128 (0x80)
Format : AC-3
Format/Info : Audio Coding 3
Bit rate mode : Constant
Bit rate : 256 Kbps
Channel(s) : 2 channels
Channel positions : L R
Sampling rate : 48.0 KHz
Video delay : -384ms
Text
ID : 32 (0x20)
Format : RLE
Format/Info : Run-length encoding
Menu
General
Complete name : D:\МОИ РАЗДАЧИ\Сваты 3 (4xDVD5)\Сваты 3 (07 - 09 серии)\VIDEO_TS\VTS_01_3.VOB
Format : MPEG-PS
File size : 1 024 MiB
Video
ID : 224 (0xE0)
Format : MPEG Video
Format version : Version 2
Format profile : Main@Main
Format settings, BVOP : Yes
Format settings, Matrix : Default
Bit rate mode : Variable
Bit rate : 9 400 Kbps
Width : 720 pixels
Height : 576 pixels
Display aspect ratio : 4:3
Frame rate : 25.000 fps
Standard : PAL
Resolution : 8 bits
Colorimetry : 4:2:0
Scan type : Interlaced
Scan order : Top Field First
Bits/(Pixel*Frame) : 0.907
Audio
ID : 128 (0x80)
Format : AC-3
Format/Info : Audio Coding 3
Bit rate mode : Constant
Bit rate : 256 Kbps
Channel(s) : 2 channels
Channel positions : L R
Sampling rate : 48.0 KHz
Video delay : -688ms
Text
ID : 32 (0x20)
Format : RLE
Format/Info : Run-length encoding
Video delay : 4s 240ms
Menu
General
Complete name : D:\МОИ РАЗДАЧИ\Сваты 3 (4xDVD5)\Сваты 3 (07 - 09 серии)\VIDEO_TS\VTS_01_4.VOB
Format : MPEG-PS
File size : 752 MiB
Duration : 30mn 38s
Overall bit rate : 3 430 Kbps
Video
ID : 224 (0xE0)
Format : MPEG Video
Format version : Version 2
Format profile : Main@Main
Format settings, BVOP : Yes
Format settings, Matrix : Default
Duration : 30mn 38s
Bit rate mode : Variable
Bit rate : 3 037 Kbps
Nominal bit rate : 9 400 Kbps
Width : 720 pixels
Height : 576 pixels
Display aspect ratio : 4:3
Frame rate : 25.000 fps
Standard : PAL
Resolution : 8 bits
Colorimetry : 4:2:0
Scan type : Interlaced
Scan order : Top Field First
Bits/(Pixel*Frame) : 0.293
Stream size : 666 MiB (89%)
Audio
ID : 128 (0x80)
Format : AC-3
Format/Info : Audio Coding 3
Duration : 30mn 38s
Bit rate mode : Constant
Bit rate : 256 Kbps
Channel(s) : 2 channels
Channel positions : L R
Sampling rate : 48.0 KHz
Video delay : -512ms
Stream size : 56.1 MiB (7%)
Text
ID : 32 (0x20)
Format : RLE
Format/Info : Run-length encoding
Video delay : 1s 160ms
Menu
MediaInfo для 4-го диска
General
Complete name : D:\МОИ РАЗДАЧИ\Сваты 3 (4xDVD5)\Сваты 3 (10 - 12 серии)\VIDEO_TS\VIDEO_TS.BUP
Format : DVD Video
Format profile : Menu
File size : 12.0 KiB
Video
ID : 0xE0
Format : MPEG Video
Format version : Version 2
Bit rate mode : Variable
Width : 720 pixels
Height : 576 pixels
Display aspect ratio : 4:3
Frame rate : 25.000 fps
Standard : PAL
Audio
Format : AC-3
Format/Info : Audio Coding 3
Channel(s) : 2 channels
Sampling rate : 48.0 KHz
Text
Format : RLE
Format/Info : Run-length encoding
Resolution : 2 bits
General
Complete name : D:\МОИ РАЗДАЧИ\Сваты 3 (4xDVD5)\Сваты 3 (10 - 12 серии)\VIDEO_TS\VIDEO_TS.IFO
Format : DVD Video
Format profile : Menu
File size : 12.0 KiB
Video
ID : 0xE0
Format : MPEG Video
Format version : Version 2
Bit rate mode : Variable
Width : 720 pixels
Height : 576 pixels
Display aspect ratio : 4:3
Frame rate : 25.000 fps
Standard : PAL
Audio
Format : AC-3
Format/Info : Audio Coding 3
Channel(s) : 2 channels
Sampling rate : 48.0 KHz
Text
Format : RLE
Format/Info : Run-length encoding
Resolution : 2 bits
General
Complete name : D:\МОИ РАЗДАЧИ\Сваты 3 (4xDVD5)\Сваты 3 (10 - 12 серии)\VIDEO_TS\VIDEO_TS.VOB
Format : MPEG-PS
File size : 692 KiB
Video
ID : 224 (0xE0)
Format : MPEG Video
Format version : Version 2
Format profile : Main@Main
Format settings, BVOP : No
Format settings, Matrix : Default
Bit rate mode : Constant
Bit rate : 8 000 Kbps
Width : 720 pixels
Height : 576 pixels
Display aspect ratio : 4:3
Frame rate : 25.000 fps
Standard : PAL
Resolution : 8 bits
Colorimetry : 4:2:0
Scan type : Progressive
Scan order : Top Field First
Bits/(Pixel*Frame) : 0.772
Audio
ID : 128 (0x80)
Format : AC-3
Format/Info : Audio Coding 3
Bit rate mode : Constant
Bit rate : 192 Kbps
Channel(s) : 2 channels
Channel positions : L R
Sampling rate : 48.0 KHz
Text
ID : 32 (0x20)
Format : RLE
Format/Info : Run-length encoding
Menu
General
Complete name : D:\МОИ РАЗДАЧИ\Сваты 3 (4xDVD5)\Сваты 3 (10 - 12 серии)\VIDEO_TS\VTS_01_0.BUP
Format : DVD Video
Format profile : Program
File size : 112 KiB
Video
ID : 0xE0
Format : MPEG Video
Format version : Version 2
Bit rate mode : Variable
Width : 720 pixels
Height : 576 pixels
Display aspect ratio : 4:3
Frame rate : 25.000 fps
Standard : PAL
Audio
ID : 0x80
Format : AC-3
Format/Info : Audio Coding 3
Channel(s) : 2 channels
Sampling rate : 48.0 KHz
Language : Russian
Text
ID : 0x20
Format : RLE
Format/Info : Run-length encoding
Resolution : 2 bits
Language : Ukrainian
Menu #1
List (Audio) : 0
List (Subtitles 4/3) : 0
List (Subtitles Wide) : 0
List (Subtitles Letterbox) : 0
List (Subtitles Pan&Scan) : 0
Menu #2
General
Complete name : D:\МОИ РАЗДАЧИ\Сваты 3 (4xDVD5)\Сваты 3 (10 - 12 серии)\VIDEO_TS\VTS_01_0.IFO
Format : DVD Video
Format profile : Program
File size : 112 KiB
Video
ID : 0xE0
Format : MPEG Video
Format version : Version 2
Bit rate mode : Variable
Width : 720 pixels
Height : 576 pixels
Display aspect ratio : 4:3
Frame rate : 25.000 fps
Standard : PAL
Audio
ID : 0x80
Format : AC-3
Format/Info : Audio Coding 3
Channel(s) : 2 channels
Sampling rate : 48.0 KHz
Language : Russian
Text
ID : 0x20
Format : RLE
Format/Info : Run-length encoding
Resolution : 2 bits
Language : Ukrainian
Menu #1
List (Audio) : 0
List (Subtitles 4/3) : 0
List (Subtitles Wide) : 0
List (Subtitles Letterbox) : 0
List (Subtitles Pan&Scan) : 0
Menu #2
General
Complete name : D:\МОИ РАЗДАЧИ\Сваты 3 (4xDVD5)\Сваты 3 (10 - 12 серии)\VIDEO_TS\VTS_01_0.VOB
Format : MPEG-PS
File size : 696 KiB
Video
ID : 224 (0xE0)
Format : MPEG Video
Format version : Version 2
Format profile : Main@Main
Format settings, BVOP : No
Format settings, Matrix : Default
Bit rate mode : Constant
Bit rate : 8 000 Kbps
Width : 720 pixels
Height : 576 pixels
Display aspect ratio : 4:3
Frame rate : 25.000 fps
Standard : PAL
Resolution : 8 bits
Colorimetry : 4:2:0
Scan type : Progressive
Scan order : Top Field First
Bits/(Pixel*Frame) : 0.772
Audio
ID : 128 (0x80)
Format : AC-3
Format/Info : Audio Coding 3
Bit rate mode : Constant
Bit rate : 192 Kbps
Channel(s) : 2 channels
Channel positions : L R
Sampling rate : 48.0 KHz
Text
ID : 32 (0x20)
Format : RLE
Format/Info : Run-length encoding
Menu
General
Complete name : D:\МОИ РАЗДАЧИ\Сваты 3 (4xDVD5)\Сваты 3 (10 - 12 серии)\VIDEO_TS\VTS_01_1.VOB
Format : MPEG-PS
File size : 1 024 MiB
Duration : 41mn 45s
Overall bit rate : 3 429 Kbps
Video
ID : 224 (0xE0)
Format : MPEG Video
Format version : Version 2
Format profile : Main@Main
Format settings, BVOP : No
Format settings, Matrix : Default
Duration : 41mn 45s
Bit rate mode : Constant
Bit rate : 3 037 Kbps
Nominal bit rate : 8 000 Kbps
Width : 720 pixels
Height : 576 pixels
Display aspect ratio : 16:9
Frame rate : 25.000 fps
Standard : PAL
Resolution : 8 bits
Colorimetry : 4:2:0
Scan type : Progressive
Scan order : Top Field First
Bits/(Pixel*Frame) : 0.293
Stream size : 907 MiB (89%)
Audio
ID : 128 (0x80)
Format : AC-3
Format/Info : Audio Coding 3
Duration : 41mn 25s
Bit rate mode : Constant
Bit rate : 256 Kbps
Channel(s) : 2 channels
Channel positions : L R
Sampling rate : 48.0 KHz
Video delay : 19s 8ms
Stream size : 75.9 MiB (7%)
Text
ID : 32 (0x20)
Format : RLE
Format/Info : Run-length encoding
Menu
General
Complete name : D:\МОИ РАЗДАЧИ\Сваты 3 (4xDVD5)\Сваты 3 (10 - 12 серии)\VIDEO_TS\VTS_01_2.VOB
Format : MPEG-PS
File size : 1 024 MiB
Video
ID : 224 (0xE0)
Format : MPEG Video
Format version : Version 2
Format profile : Main@Main
Format settings, BVOP : Yes
Format settings, Matrix : Default
Bit rate mode : Variable
Bit rate : 9 400 Kbps
Width : 720 pixels
Height : 576 pixels
Display aspect ratio : 4:3
Frame rate : 25.000 fps
Standard : PAL
Resolution : 8 bits
Colorimetry : 4:2:0
Scan type : Interlaced
Scan order : Top Field First
Bits/(Pixel*Frame) : 0.907
Audio
ID : 128 (0x80)
Format : AC-3
Format/Info : Audio Coding 3
Bit rate mode : Constant
Bit rate : 256 Kbps
Channel(s) : 2 channels
Channel positions : L R
Sampling rate : 48.0 KHz
Video delay : -688ms
Text
ID : 32 (0x20)
Format : RLE
Format/Info : Run-length encoding
Video delay : 1s 840ms
Menu
General
Complete name : D:\МОИ РАЗДАЧИ\Сваты 3 (4xDVD5)\Сваты 3 (10 - 12 серии)\VIDEO_TS\VTS_01_3.VOB
Format : MPEG-PS
File size : 1 024 MiB
Video
ID : 224 (0xE0)
Audio
ID : 128 (0x80)
Format : AC-3
Format/Info : Audio Coding 3
Bit rate mode : Constant
Bit rate : 256 Kbps
Channel(s) : 2 channels
Channel positions : L R
Sampling rate : 48.0 KHz
Video delay : -656ms
Text
ID : 32 (0x20)
Format : RLE
Format/Info : Run-length encoding
Video delay : 2s 680ms
Menu
General
Complete name : D:\МОИ РАЗДАЧИ\Сваты 3 (4xDVD5)\Сваты 3 (10 - 12 серии)\VIDEO_TS\VTS_01_4.VOB
Format : MPEG-PS
File size : 734 MiB
Duration : 29mn 58s
Overall bit rate : 3 426 Kbps
Video
ID : 224 (0xE0)
Format : MPEG Video
Format version : Version 2
Format profile : Main@Main
Format settings, BVOP : No
Format settings, Matrix : Default
Duration : 29mn 58s
Bit rate mode : Variable
Bit rate : 3 034 Kbps
Nominal bit rate : 9 400 Kbps
Width : 720 pixels
Height : 576 pixels
Display aspect ratio : 4:3
Frame rate : 25.000 fps
Standard : PAL
Resolution : 8 bits
Colorimetry : 4:2:0
Scan type : Interlaced
Scan order : Top Field First
Bits/(Pixel*Frame) : 0.293
Stream size : 650 MiB (89%)
Audio
ID : 128 (0x80)
Format : AC-3
Format/Info : Audio Coding 3
Duration : 29mn 58s
Bit rate mode : Constant
Bit rate : 256 Kbps
Channel(s) : 2 channels
Channel positions : L R
Sampling rate : 48.0 KHz
Video delay : -480ms
Stream size : 54.9 MiB (7%)
Text
ID : 32 (0x20)
Format : RLE
Format/Info : Run-length encoding
Video delay : 320ms
Menu
DVDInfo для 1-го диска
Title:
Size: 2.57 Gb ( 2 698 170 KBytes ) - DVD-5
Enabled regions: 1, 2, 3, 4, 5, 6, 7, 8
VTS_01 :
Play Length: 00:50:28+00:52:16+00:48:02+00:00:05
Video: PAL 4:3 (720x576) VBR
Audio:
Russian (Dolby AC3, 2 ch)
Subtitles:
Ukrainian
DVDInfo для 2-го диска
Title:
Size: 4.00 Gb ( 4 195 946 KBytes ) - DVD-5
Enabled regions: 1, 2, 3, 4, 5, 6, 7, 8
VTS_01 :
Play Length: 00:00:05+00:51:38+00:48:01+00:46:26
Video: PAL 4:3 (720x576) VBR
Audio:
Russian (Dolby AC3, 2 ch)
Subtitles:
Ukrainian
DVDInfo для 3-го диска
Title:
Size: 3.74 Gb ( 3 917 214 KBytes ) - DVD-5
Enabled regions: 1, 2, 3, 4, 5, 6, 7, 8
VTS_01 :
Play Length: 00:49:48+00:52:33+00:52:40+00:00:05
Video: PAL 4:3 (720x576) VBR
Audio:
Russian (Dolby AC3, 2 ch)
Subtitles:
Ukrainian
DVDInfo для 4-го диска
Title:
Size: 3.72 Gb ( 3 899 434 KBytes ) - DVD-5
Enabled regions: 1, 2, 3, 4, 5, 6, 7, 8
VTS_01 :
Play Length: 00:00:05+00:50:49+00:51:44+00:51:38
Video: PAL 4:3 (720x576) VBR
Audio:
Russian (Dolby AC3, 2 ch)
Subtitles:
Ukrainian
Сравнение скриншотов
Диск 1 (1 - 3 серии):
Скриншоты
Диск 2 (4 - 6 серии):
Скриншоты
Диск 3 (7 - 9 серии):
Скриншоты
Диск 4 (10 - 12 серии):
Скриншоты
Download
Чтобы скачать .torrent файл необходима регистрация
Сайт не распространяет и не хранит электронные версии произведений, а лишь предоставляет доступ к создаваемому пользователями каталогу ссылок на торрент-файлы, которые содержат только списки хеш-сумм
[Профиль]  [ЛС] 

Сударыня

Moderator gray

Стаж: 10 лет 7 месяцев

Сообщений: 10710

Сударыня · 01-Дек-10 11:18 (спустя 8 часов, ред. 01-Дек-10 12:17)

[Цитировать] 

В чем отличия от этой раздачи? http://maintracker.org/forum/viewtopic.php?t=3278770
[Профиль]  [ЛС] 

Сашок 1955

Стаж: 8 лет 3 месяца

Сообщений: 15


Сашок 1955 · 01-Дек-10 11:39 (спустя 20 мин.)

[Цитировать] 

А в чем вопрос?
Ссылка сама на себя.
[Профиль]  [ЛС] 

Сударыня

Moderator gray

Стаж: 10 лет 7 месяцев

Сообщений: 10710

Сударыня · 02-Дек-10 23:48 (спустя 1 день 12 часов, ред. 03-Дек-10 13:25)

[Цитировать] 

Lenape
Как долго еще ждать сравнения с альтернативной раздачей?

Цитата:
Продолжительность: 10:06:08
Указывается общее время в минутах на каждый диск.
Цитата:
Видео: PAL 4:3 (720x576) VBR
Еще надо добавить битрейт, а так же отчёт MediaInfo
Как получить информацию по видео файлу
[Профиль]  [ЛС] 

l-kapriz

Стаж: 8 лет

Сообщений: 66

l-kapriz · 05-Дек-10 13:02 (спустя 2 дня 13 часов)

[Цитировать] 

DVDReMakePro 3.6.3 Здесь не использовался для дезактивации кнопок, а DVD9 разделены на DVD5 программой CloneDVD2. (однокнопочной так сказать, которая запрещена на трекере, если я не ошибаюсь )
[Профиль]  [ЛС] 

Lenape

Moderator

Стаж: 8 лет 3 месяца

Сообщений: 4536

Lenape · 06-Дек-10 12:54 (спустя 23 часа)

[Цитировать] 

l-kapriz писал(а):
DVDReMakePro 3.6.3 Здесь не использовался для дезактивации кнопок, а DVD9 разделены на DVD5 программой CloneDVD2. (однокнопочной так сказать, которая запрещена на трекере, если я не ошибаюсь )
Откуда такая информация???
Все делалось именно так, как я и написал.
С CloneDVD2 никогда не работал.
Советую лишний раз подумать, прежде чем писать всякую ерунду!!!
[Профиль]  [ЛС] 

l-kapriz

Стаж: 8 лет

Сообщений: 66

l-kapriz · 07-Дек-10 14:32 (спустя 1 день 1 час, ред. 07-Дек-10 14:32)

[Цитировать] 

Цитата:
Советую лишний раз подумать, прежде чем писать всякую ерунду!!!
Это не ерунда, а действительность. Этот релиз (хеш одинаков) был сделан 15 Янв 2010 14:28:26 nnm-club . ru ( Да простят меня модераторы - это не в целях рекламы, а в подтверждение) Там можно прочесть Особенности данной раздачи:
[Профиль]  [ЛС] 

Lenape

Moderator

Стаж: 8 лет 3 месяца

Сообщений: 4536

Lenape · 07-Дек-10 16:11 (спустя 1 час 38 мин., ред. 07-Дек-10 16:11)

[Цитировать] 

l-kapriz писал(а):
Цитата:
Советую лишний раз подумать, прежде чем писать всякую ерунду!!!
Это не ерунда, а действительность. Этот релиз (хеш одинаков) был сделан 15 Янв 2010 14:28:26 nnm-club . ru ( Да простят меня модераторы - это не в целях рекламы, а в подтверждение) Там можно прочесть Особенности данной раздачи:
Я ничего не знаю о сайте, который Вы указали! Если Вы не заметили, то мне принадлежит релиз "Сваты 3" 2хDVD9 (честно купленный мной лицензионный диск, как и лицензии Сватов 1 и 2), из которого и делался данный релиз!
Я не понимаю, какую Вы преследуете цель, обвиняя меня во лжи, но еще раз говорю - не бросайтесь ложными обвинениями!!!
[Профиль]  [ЛС] 

CreedWithGod

Стаж: 7 лет 2 месяца

Сообщений: 106


CreedWithGod · 18-Дек-10 00:07 (спустя 10 дней)

[Цитировать] 

Цитата:
Сваты 3 / Серии: 12 из 12 (Андрей Яковлев) [2009, Комедия, семейный, 4хDVD5 (Custom)]
Посоветуйте пожалуйста сериал (русский,украинский) типо "Сваты" или " Интерны.Терпеть не могу закадровый хохот..
[Профиль]  [ЛС] 

megaxoel

Стаж: 9 лет 6 месяцев

Сообщений: 5


megaxoel · 30-Янв-11 17:27 (спустя 1 месяц 12 дней)

[Цитировать] 

Немного оффтопик но тем не менее Люди Добрые, подскажите - есть ли сериал Сваты-2? А то на этом трекере я увидел просто Сваты, затем эту раздачу и Сваты-4, а вот Сваты-2 то ли нет, то ли я плохо искал.
[Профиль]  [ЛС] 

Lenape

Moderator

Стаж: 8 лет 3 месяца

Сообщений: 4536

Lenape · 31-Янв-11 10:56 (спустя 17 часов)

[Цитировать] 

megaxoel писал(а):
Немного оффтопик но тем не менее Люди Добрые, подскажите - есть ли сериал Сваты-2? А то на этом трекере я увидел просто Сваты, затем эту раздачу и Сваты-4, а вот Сваты-2 то ли нет, то ли я плохо искал.
Пожалуйста:
http://maintracker.org/forum/viewtopic.php?t=2574388
[Профиль]  [ЛС] 

megaxoel

Стаж: 9 лет 6 месяцев

Сообщений: 5


megaxoel · 03-Фев-11 17:41 (спустя 3 дня)

[Цитировать] 

Lenape премного благодарен! Видать точно не там искал.
[Профиль]  [ЛС] 

Virvulpo

Стаж: 8 лет 9 месяцев

Сообщений: 86

Virvulpo · 10-Апр-11 13:20 (спустя 2 месяца 6 дней)

[Цитировать] 

Lenape писал(а):
Данный релиз сделан из моей раздачи лицензионных 2хDVD9
Ссылка на другую раздачу.
[Профиль]  [ЛС] 

Lenape

Moderator

Стаж: 8 лет 3 месяца

Сообщений: 4536

Lenape · 14-Апр-11 16:34 (спустя 4 дня)

[Цитировать] 

Virvulpo писал(а):
Lenape писал(а):
Данный релиз сделан из моей раздачи лицензионных 2хDVD9
Ссылка на другую раздачу.
Вы правы, исправил.
Спасибо!
[Профиль]  [ЛС] 

ZorKon71

Стаж: 8 лет 1 месяц

Сообщений: 382

ZorKon71 · 21-Июн-11 17:59 (спустя 2 месяца 7 дней, ред. 21-Июн-11 17:59)

[Цитировать] 

А в чём отличие от этой раздачи?
http://maintracker.org/forum/viewtopic.php?t=3278770
Здесь изображение то же как там ужато по горизонтали?
Почему там 3, а тут 4, если из одних и тех же DVD9 сделано?!
[Профиль]  [ЛС] 

colin68

Стаж: 8 лет 3 месяца

Сообщений: 6


colin68 · 26-Окт-11 21:41 (спустя 4 месяца 5 дней, ред. 26-Окт-11 21:41)

[Цитировать] 

Нелепо выглядит меню на 6 серий. И при том же качестве, чаще надо вставать с дивана менять диск. Так что извините предпочту двухдисковую версию
[Профиль]  [ЛС] 
 
Ответить
Loading...
Error